+ ShareSpark.net »  :::: Hollywood Zone » Hollywood Movies (Original Rips) » TeamSSX Hollywood Releases
|- A Quiet Place 2018 480p BRRip x264 [Eng] YsB TeaM Fl & SSX


100% Bill Offer

A Quiet Place 2018 480p BRRip x264 [Eng] YsB TeaM Fl & SSX

0 Members and 1 Guest are viewing this topic.

June 28, 2018, 09:37:39 PM
  • Admin
  • Legend Member
  • ****
  • Topic Author
  • Thank You: 657
  • Reputation: 641
  • Activity:
    0.8%
  • Country: cn
  • Posts: 2394
  • Topics: 521
  • Join Date: Dec 2011
  • ShareSpark Member
  • Expertises:
  • Bollywood Movies
  • PC Applications
  • PC Games
A Quiet Place 2018 480p BRRip x264 [Eng] YsB TeaM Fl & SSX






Code: [Select]
General
Complete name               : A Quiet Place 2018 480p BRRip x264 [Eng] YsB TeaM Fl & SSX.mkv
Format                      : Matroska
Format version              : Version 4 / Version 2
File size                   : 333 MiB
Duration                    : 1 h 30 min
Overall bit rate            : 515 kb/s
Movie name                  : A Quiet Place 2018 480p BRRip x264 [Eng] YsB TeaM Fl & SSX

Video
ID                          : 1
Format                      : AVC
Format/Info                 : Advanced Video Codec
Format profile              : [email protected]
Codec ID                    : V_MPEG4/ISO/AVC
Duration                    : 1 h 30 min
Bit rate                    : 450 kb/s
Width                       : 848 pixels
Height                      : 352 pixels
Display aspect ratio        : 2.40:1
Frame rate mode             : Constant
Frame rate                  : 23.976 (24000/1001) FPS
Color space                 : YUV
Chroma subsampling          : 4:2:0
Bit depth                   : 8 bits
Scan type                   : Progressive
Bits/(Pixel*Frame)          : 0.063
Stream size                 : 290 MiB (87%)
Title                       : YsB TeaM Fl

Audio
ID                          : 2
Format                      : AC-3
Format/Info                 : Audio Coding 3
Codec ID                    : A_AC3
Duration                    : 1 h 30 min
Bit rate mode               : Constant
Bit rate                    : 64.0 kb/s
Channel(s)                  : 2 channels
Channel positions           : Front: L R
Sampling rate               : 48.0 kHz
Bit depth                   : 16 bits
Compression mode            : Lossy
Stream size                 : 41.3 MiB (12%)
Title                       : YsB TeaM Fl
Language                    : English

Text
ID                          : 3
Format                      : UTF-8
Codec ID                    : S_TEXT/UTF8
Codec ID/Info               : UTF-8 Plain Text
Duration                    : 1 h 11 min
Count of elements           : 114
Stream size                 : 1.87 KiB (0%)
Title                       : YsB TeaM FlEnglish Forced
Language                    : English










:download:









Torrent file attached...



Thanks.
TeaM FL , TeaM SSX, AnantaRdp



Share this topic on FacebookShare this topic on GoogleShare this topic on MySpaceShare this topic on TwitterShare this topic on Yahoo

« Last Edit: June 28, 2018, 09:48:51 PM by Ðj sαм »


Thanks given by:


June 29, 2018, 03:17:02 PM
Reply #1
  • Semi Newbie
  • **
  • Thank You: 2
  • Reputation: 0
  • Activity:
    0%
  • Country: bt
  • Posts: 18
  • Topics: 9
  • Join Date: Jun 2018
  • ShareSpark Member

 

Related Topics

  Subject / Started by Replies Last post
0 Replies
510 Views
Last post June 04, 2018, 02:12:15 PM
by Pankajmohan11
0 Replies
419 Views
Last post June 14, 2018, 06:58:52 PM
by shahzaibjaan
0 Replies
338 Views
Last post June 26, 2018, 04:18:20 PM
by PSYCHO
0 Replies
481 Views
Last post June 28, 2018, 08:11:01 AM
by тнє ωαll 81317
0 Replies
641 Views
Last post June 28, 2018, 10:58:04 AM
by ♥ Mann ♥




Back to top