+ ShareSpark.net »  :::: Hollywood Zone » Hollywood Movies (Original Rips) » TeamSSX Hollywood Releases
|- Annihilation 2018 BRRip 480p x264 [Eng] YsB TeaM Fl & SSX


Amazon Pantry Offer

Annihilation 2018 BRRip 480p x264 [Eng] YsB TeaM Fl & SSX

0 Members and 1 Guest are viewing this topic.

June 21, 2018, 09:46:24 PM
  • Admin
  • Legend Member
  • ****
  • Topic Author
  • Thank You: 657
  • Reputation: 641
  • Activity:
    0.8%
  • Country: cn
  • Posts: 2394
  • Topics: 521
  • Join Date: Dec 2011
  • ShareSpark Member
  • Expertises:
  • Bollywood Movies
  • PC Applications
  • PC Games
Annihilation 2018 BRRip 480p x264 [Eng] YsB TeaM Fl & SSX



:info:


Code: [Select]
General
Complete name               : Annihilation 2018 BRRip 480p x264 [Eng] YsB TeaM Fl & SSX
Format                      : Matroska
Format version              : Version 4 / Version 2
File size                   : 424 MiB
Duration                    : 1 h 55 min
Overall bit rate            : 516 kb/s

Video
ID                          : 1
Format                      : AVC
Format/Info                 : Advanced Video Codec
Format profile              : [email protected]
Duration                    : 1 h 55 min
Bit rate                    : 450 kb/s
Width                       : 848 pixels
Height                      : 352 pixels
Display aspect ratio        : 2.40:1
Frame rate mode             : Constant
Frame rate                  : 23.976 (24000/1001) FPS
Color space                 : YUV
Bit depth                   : 8 bits
Stream size                 : 370 MiB (87%)


Audio #1
ID                          : 2
Format                      : AC-3
Format/Info                 : Audio Coding 3
Duration                    : 1 h 55 min
Bit rate mode               : Constant
Bit rate                    : 64.0 kb/s
Channel(s)                  : 2 channels
Channel positions           : Front: L R
Sampling rate               : 48.0 kHz
Bit depth                   : 16 bits
Compression mode            : Lossy
Stream size                 : 52.6 MiB (12%)
Title                       : YsB TeaM Fl
Language                    : English




:ss:







:download:









Thanks.
TeaM FL , TeaM SSX, AnantaRdp



Share this topic on FacebookShare this topic on GoogleShare this topic on MySpaceShare this topic on TwitterShare this topic on Yahoo

« Last Edit: June 21, 2018, 10:40:15 PM by Ðj sαм »


Thanks given by:


June 21, 2018, 11:02:38 PM
Reply #1
  • ***************
  • Conqueror
  • Legend Member
  • *****
  • Thank You: 1968
  • Reputation: 566
  • Activity:
    100%
  • Country: pk
  • Posts: 2194
  • Topics: 1472
  • Join Date: Mar 2015
  • =$ Success Never Ends $=

 

Related Topics





Back to top