+ ShareSpark.net »  :::: Hollywood Zone » Hollywood Movies (Original Rips) » TeamSSX Hollywood Releases
|- Tomb Raider 2018 BRRip 480p x264 [Eng] YsB TeaM Fl & SSX


Redmi 6A

Tomb Raider 2018 BRRip 480p x264 [Eng] YsB TeaM Fl & SSX

0 Members and 1 Guest are viewing this topic.

June 21, 2018, 09:43:48 PM
  • Admin
  • Legend Member
  • ****
  • Topic Author
  • Thank You: 657
  • Reputation: 641
  • Activity:
    0.8%
  • Country: cn
  • Posts: 2394
  • Topics: 521
  • Join Date: Dec 2011
  • ShareSpark Member
  • Expertises:
  • Bollywood Movies
  • PC Applications
  • PC Games
Tomb Raider 2018 BRRip 480p x264 [Eng] YsB TeaM Fl & SSX



:info:

Code: [Select]
General
Complete name               : Tomb Raider 2018 BRRip 480p x264 [Eng] YsB TeaM Fl & SSX
Format                      : Matroska
Format version              : Version 2
File size                   : 435 MiB
Duration                    : 1 h 57 min
Overall bit rate            : 516 kb/s

Video
ID                          : 1
Format                      : AVC
Format/Info                 : Advanced Video Codec
Format profile              : [email protected]
Codec ID                    : V_MPEG4/ISO/AVC
Duration                    : 1 h 57 min
Bit rate                    : 450 kb/s
Width                       : 848 pixels
Height                      : 352 pixels
Display aspect ratio        : 2.40:1
Frame rate mode             : Constant
Frame rate                  : 23.976 (24000/1001) FPS
Color space                 : YUV
Bit depth                   : 8 bits
Stream size                 : 379 MiB (87%)


Audio #1
ID                          : 2
Format                      : AC-3
Codec ID                    : A_AC3
Duration                    : 1 h 57 min
Bit rate mode               : Constant
Bit rate                    : 64.0 kb/s
Channel(s)                  : 2 channels
Channel positions           : Front: L R
Sampling rate               : 48.0 kHz
Bit depth                   : 16 bits
Compression mode            : Lossy
Stream size                 : 53.9 MiB (12%)
Language                    : English




:ss:







:download:










Thanks.
TeaM FL , TeaM SSX, AnantaRdp



Share this topic on FacebookShare this topic on GoogleShare this topic on MySpaceShare this topic on TwitterShare this topic on Yahoo

« Last Edit: June 21, 2018, 10:40:54 PM by Ðj sαм »



 

Related Topics

  Subject / Started by Replies Last post
1 Replies
1841 Views
Last post May 07, 2018, 03:59:38 PM
by neroyoung
0 Replies
404 Views
Last post May 29, 2018, 10:42:10 AM
by ♥ Mann ♥
0 Replies
378 Views
Last post May 29, 2018, 11:19:13 AM
by ♥ Mann ♥
1 Replies
561 Views
Last post May 30, 2018, 08:59:28 PM
by shahzaibjaan
0 Replies
384 Views
Last post May 31, 2018, 07:45:28 PM
by ♥ Mann ♥




Back to top