+ ShareSpark.net »  :::: Hollywood Zone » Hollywood Movies (Original Rips) » TeamSSX Hollywood Releases
|- Pacific Rim Uprising 2018 480p BRRip [Eng] YsB TeaM Fl & SSX


10% SBI and 10% Discount

Pacific Rim Uprising 2018 480p BRRip [Eng] YsB TeaM Fl & SSX

0 Members and 1 Guest are viewing this topic.

June 21, 2018, 09:39:58 PM
  • Admin
  • Legend Member
  • ****
  • Topic Author
  • Thank You: 657
  • Reputation: 641
  • Activity:
    0.8%
  • Country: cn
  • Posts: 2394
  • Topics: 521
  • Join Date: Dec 2011
  • ShareSpark Member
  • Expertises:
  • Bollywood Movies
  • PC Applications
  • PC Games
Pacific Rim Uprising 2018 480p BRRip [Eng] YsB TeaM Fl & SSX



:info:

Code: [Select]
General
Complete name               : Pacific Rim Uprising 2018 480p BRRip [Eng] YsB TeaM Fl & SSX
Format                      : Matroska
Format version              : Version 4 / Version 2
File size                   : 408 MiB
Duration                    : 1 h 50 min
Overall bit rate            : 516 kb/s
Movie name                  : Pacific Rim Uprising 2018 480p BRRip [Eng] YsB TeaM Fl & SSX

Video
ID                          : 1
Format                      : AVC
Format/Info                 : Advanced Video Codec
Format profile              : [email protected]
Duration                    : 1 h 50 min
Bit rate                    : 450 kb/s
Width                       : 848 pixels
Height                      : 352 pixels
Display aspect ratio        : 2.40:1
Frame rate mode             : Constant
Frame rate                  : 23.976 (24000/1001) FPS
Color space                 : YUV
Stream size                 : 356 MiB (87%)
Title                       : YsB TeaM FL

Audio
ID                          : 2
Format                      : AC-3
Format/Info                 : Audio Coding 3
Codec ID                    : A_AC3
Duration                    : 1 h 50 min
Bit rate mode               : Constant
Bit rate                    : 64.0 kb/s
Channel(s)                  : 2 channels
Channel positions           : Front: L R
Sampling rate               : 48.0 kHz
Bit depth                   : 16 bits
Compression mode            : Lossy
Stream size                 : 50.7 MiB (12%)
Title                       : YsB TeaM FL
Language                    : English

Text
ID                          : 3
Format                      : UTF-8
Codec ID                    : S_TEXT/UTF8
Codec ID/Info               : UTF-8 Plain Text
Duration                    : 1 h 40 min
Count of elements           : 1161
Stream size                 : 43.4 KiB (0%)
Title                       : YsB TeaM FL
Language                    : English


:ss:








:download:










Thanks.
TeaM FL , TeaM SSX, AnantaRdp



Share this topic on FacebookShare this topic on GoogleShare this topic on MySpaceShare this topic on TwitterShare this topic on Yahoo

« Last Edit: June 21, 2018, 10:42:24 PM by Ðj sαм »



 

Related Topics





Back to top