+ ShareSpark.net »  :::: Hollywood Zone » Hollywood Movies (Original Rips) » TeamSSX Hollywood Releases
|- Escape Plan 2 Hades 2018 480p BRRip x264 [Eng] YsB TeaM Fl & SSX


Mastercard 10% Off

Escape Plan 2 Hades 2018 480p BRRip x264 [Eng] YsB TeaM Fl & SSX

0 Members and 1 Guest are viewing this topic.

June 21, 2018, 09:36:14 PM
  • Admin
  • Legend Member
  • ****
  • Topic Author
  • Thank You: 657
  • Reputation: 641
  • Activity:
    0.8%
  • Country: cn
  • Posts: 2394
  • Topics: 521
  • Join Date: Dec 2011
  • ShareSpark Member
  • Expertises:
  • Bollywood Movies
  • PC Applications
  • PC Games
Escape Plan 2 Hades 2018 480p BRRip x264 [Eng] YsB TeaM Fl & SSX



:info:

Code: [Select]
General
Complete name               : Escape Plan 2 Hades 2018 480p BRRip x264 [Eng] YsB TeaM Fl & SSX
Format                      : Matroska
Format version              : Version 4 / Version 2
File size                   : 345 MiB
Duration                    : 1 h 33 min
Overall bit rate            : 515 kb/s
Movie name                  : Escape Plan 2 Hades 2018 480p BRRip x264 [Eng] YsB TeaM Fl & SSX

Video
ID                          : 1
Format                      : AVC
Format/Info                 : Advanced Video Codec
Format profile              : [email protected]
Codec ID                    : V_MPEG4/ISO/AVC
Duration                    : 1 h 33 min
Bit rate                    : 450 kb/s
Width                       : 848 pixels
Height                      : 352 pixels
Display aspect ratio        : 2.40:1
Frame rate mode             : Constant
Frame rate                  : 23.976 (24000/1001) FPS
Color space                 : YUV
Chroma subsampling          : 4:2:0
Bit depth                   : 8 bits
Scan type                   : Progressive
Bits/(Pixel*Frame)          : 0.063
Stream size                 : 301 MiB (87%)
Title                       : YsB TeaM FL

Audio
ID                          : 2
Format                      : AC-3
Format/Info                 : Audio Coding 3
Codec ID                    : A_AC3
Duration                    : 1 h 33 min
Bit rate mode               : Constant
Bit rate                    : 64.0 kb/s
Channel(s)                  : 2 channels
Channel positions           : Front: L R
Sampling rate               : 48.0 kHz
Bit depth                   : 16 bits
Compression mode            : Lossy
Stream size                 : 42.9 MiB (12%)
Title                       : YsB TeaM FL
Language                    : English

Text
ID                          : 3
Format                      : UTF-8
Codec ID                    : S_TEXT/UTF8
Codec ID/Info               : UTF-8 Plain Text
Duration                    : 1 h 24 min
Bit rate                    : 45 b/s
Count of elements           : 848
Stream size                 : 28.2 KiB (0%)
Title                       : YsB TeaM FL
Language                    : English


:ss:








:download:









Thanks.
TeaM FL , TeaM SSX, AnantaRdp



Share this topic on FacebookShare this topic on GoogleShare this topic on MySpaceShare this topic on TwitterShare this topic on Yahoo

« Last Edit: June 21, 2018, 10:43:16 PM by Ðj sαм »



June 21, 2018, 11:05:53 PM
Reply #1
  • ***************
  • Conqueror
  • Legend Member
  • *****
  • Thank You: 1968
  • Reputation: 566
  • Activity:
    100%
  • Country: pk
  • Posts: 2194
  • Topics: 1472
  • Join Date: Mar 2015
  • =$ Success Never Ends $=
NICE SHRE BRO BUT HINDI RELASE DATE KAB HAI

 

Related Topics

  Subject / Started by Replies Last post
0 Replies
272 Views
Last post June 15, 2018, 05:26:11 PM
by ♥ Mann ♥
0 Replies
351 Views
Last post June 15, 2018, 05:26:34 PM
by ♥ Mann ♥
0 Replies
704 Views
Last post June 15, 2018, 05:52:31 PM
by ♥ Mann ♥
3 Replies
1297 Views
Last post June 15, 2018, 06:29:46 PM
by ♥ Mann ♥
2 Replies
3561 Views
Last post July 16, 2018, 07:31:18 PM
by shahzaibjaan




Back to top