+ ShareSpark.net »  :::: Hollywood Zone » Hollywood Movies (Original Rips) » TeamSSX Hollywood Releases
|- Acrimony 2018 BRRip 480p x264 [Eng] YsB TeaM Fl & SSX


100% Recharge Offer

Acrimony 2018 BRRip 480p x264 [Eng] YsB TeaM Fl & SSX

0 Members and 1 Guest are viewing this topic.

June 21, 2018, 09:32:17 PM
  • Admin
  • Legend Member
  • ****
  • Topic Author
  • Thank You: 657
  • Reputation: 641
  • Activity:
    0.8%
  • Country: cn
  • Posts: 2394
  • Topics: 521
  • Join Date: Dec 2011
  • ShareSpark Member
  • Expertises:
  • Bollywood Movies
  • PC Applications
  • PC Games
Acrimony 2018 BRRip 480p x264 [Eng] YsB TeaM Fl & SSX



:info:


Code: [Select]
General
Complete name               : Acrimony 2018 BRRip 480p x264 [Eng] YsB TeaM Fl & SSX.mkv
Format                      : Matroska
Format version              : Version 2
File size                   : 444 MiB
Duration                    : 2 h 0 min
Overall bit rate            : 515 kb/s

Video
ID                          : 1
Format                      : AVC
Format/Info                 : Advanced Video Codec
Format profile              : [email protected]
Codec ID                    : V_MPEG4/ISO/AVC
Duration                    : 2 h 0 min
Bit rate                    : 450 kb/s
Width                       : 848 pixels
Height                      : 352 pixels
Display aspect ratio        : 2.40:1
Frame rate mode             : Constant
Frame rate                  : 23.976 (24000/1001) FPS
Color space                 : YUV
Chroma subsampling          : 4:2:0
Bit depth                   : 8 bits
Stream size                 : 388 MiB (87%)

Audio
ID                          : 2
Format                      : AC-3
Format/Info                 : Audio Coding 3
Codec ID                    : A_AC3
Duration                    : 2 h 0 min
Bit rate mode               : Constant
Bit rate                    : 64.0 kb/s
Channel(s)                  : 2 channels
Channel positions           : Front: L R
Sampling rate               : 48.0 kHz
Bit depth                   : 16 bits
Compression mode            : Lossy
Stream size                 : 55.1 MiB (12%)
Language                    : English


:ss:








:download:









Thanks.
TeaM FL , TeaM SSX, AnantaRdp



Share this topic on FacebookShare this topic on GoogleShare this topic on MySpaceShare this topic on TwitterShare this topic on Yahoo

« Last Edit: June 21, 2018, 10:44:01 PM by Ðj sαм »



 

Related Topics

  Subject / Started by Replies Last post
0 Replies
298 Views
Last post June 12, 2018, 12:18:18 PM
by ♥ Mann ♥
0 Replies
406 Views
Last post June 12, 2018, 12:54:25 PM
by ♥ Mann ♥
0 Replies
277 Views
Last post June 12, 2018, 12:57:23 PM
by ♥ Mann ♥
0 Replies
213 Views
Last post June 13, 2018, 04:34:13 PM
by shahzaibjaan
0 Replies
649 Views
Last post June 16, 2018, 04:46:09 PM
by ♥ Mann ♥




Back to top