+ ShareSpark.net »  :::: Hollywood Zone » Hollywood Movies (Original Rips) » TeamSSX Hollywood Releases
|- Ready Player One 2018 480p WEB-DL x264 [Eng] YsB Team Fl & SSX


10% SBI and 10% Discount

Ready Player One 2018 480p WEB-DL x264 [Eng] YsB Team Fl & SSX

0 Members and 1 Guest are viewing this topic.

June 21, 2018, 08:48:21 PM
  • Admin
  • Legend Member
  • ****
  • Topic Author
  • Thank You: 657
  • Reputation: 641
  • Activity:
    0.8%
  • Country: cn
  • Posts: 2394
  • Topics: 521
  • Join Date: Dec 2011
  • ShareSpark Member
  • Expertises:
  • Bollywood Movies
  • PC Applications
  • PC Games
Ready Player One 2018 480p WEB-DL x264 [Eng] YsB Team Fl & SSX



:info:

Code: [Select]
General
Complete name               : Ready Player One 2018 480p WEB-DL x264 [Eng] YsB Team Fl & SSX.mkv
Format                      : Matroska
Format version              : Version 4 / Version 2
File size                   : 516 MiB
Duration                    : 2 h 19 min
Overall bit rate            : 516 kb/s
Movie name                  : Ready Player One 2018 480p WEB-DL x264 [Eng] YsB Team Fl & SSX

Video
ID                          : 1
Format                      : AVC
Format/Info                 : Advanced Video Codec
Format profile              : [email protected]
Codec ID                    : V_MPEG4/ISO/AVC
Duration                    : 2 h 19 min
Bit rate                    : 450 kb/s
Width                       : 848 pixels
Height                      : 352 pixels
Display aspect ratio        : 2.40:1
Frame rate mode             : Constant
Frame rate                  : 23.976 (24000/1001) FPS
Color space                 : YUV
Chroma subsampling          : 4:2:0
Bit depth                   : 8 bits
Scan type                   : Progressive
Bits/(Pixel*Frame)          : 0.063
Stream size                 : 450 MiB (87%)
Title                       : YsB Team Fl

Audio
ID                          : 2
Format                      : AC-3
Format/Info                 : Audio Coding 3
Codec ID                    : A_AC3
Duration                    : 2 h 19 min
Bit rate mode               : Constant
Bit rate                    : 64.0 kb/s
Channel(s)                  : 2 channels
Channel positions           : Front: L R
Sampling rate               : 48.0 kHz
Bit depth                   : 16 bits
Compression mode            : Lossy
Stream size                 : 64.1 MiB (12%)
Title                       : YsB Team Fl
Language                    : English

Text
ID                          : 3
Format                      : UTF-8
Codec ID                    : S_TEXT/UTF8
Codec ID/Info               : UTF-8 Plain Text
Duration                    : 2 h 8 min
Count of elements           : 1856
Stream size                 : 59.0 KiB (0%)
Title                       : YsB Team Fl
Language                    : English


:ss:








:download:











Thanks.
TeaM FL , TeaM SSX, AnantaRdp



Share this topic on FacebookShare this topic on GoogleShare this topic on MySpaceShare this topic on TwitterShare this topic on Yahoo

« Last Edit: June 21, 2018, 10:41:32 PM by Ðj sαм »



 

Related Topics

  Subject / Started by Replies Last post
0 Replies
1215 Views
Last post May 09, 2018, 09:46:12 PM
by hegyiwarez86
0 Replies
715 Views
Last post July 03, 2018, 06:29:16 PM
by ♥ Mann ♥
0 Replies
692 Views
Last post July 03, 2018, 06:30:55 PM
by ♥ Mann ♥
0 Replies
444 Views
Last post July 04, 2018, 02:41:02 PM
by Pankajmohan11
0 Replies
625 Views
Last post July 05, 2018, 10:21:30 AM
by Pankajmohan11




Back to top