+ ShareSpark.net »  :::: Hollywood Zone » Hollywood Movies (Original Rips) » TeamSSX Hollywood Releases
|- Rampage 2018 480p WEB-DL x264 [Eng] YsB Team Fl & SSX


Redmi 6A

Rampage 2018 480p WEB-DL x264 [Eng] YsB Team Fl & SSX

0 Members and 1 Guest are viewing this topic.

June 18, 2018, 04:54:27 PM
  • Admin
  • Legend Member
  • ****
  • Topic Author
  • Thank You: 657
  • Reputation: 641
  • Activity:
    0.8%
  • Country: cn
  • Posts: 2394
  • Topics: 521
  • Join Date: Dec 2011
  • ShareSpark Member
  • Expertises:
  • Bollywood Movies
  • PC Applications
  • PC Games
Rampage 2018 480p WEB-DL x264 [Eng] YsB Team Fl & SSX



:info:
Code: [Select]
General
Complete name               : Rampage 2018 480p WEB-DL x264 [Eng] YsB Team Fl & SSX.mkv
Format                      : Matroska
Format version              : Version 2
File size                   : 395 MiB
Duration                    : 1 h 47 min
Overall bit rate            : 515 kb/s

Video
ID                          : 1
Format                      : AVC
Format/Info                 : Advanced Video Codec
Format profile              : [email protected]
Duration                    : 1 h 47 min
Bit rate                    : 450 kb/s
Width                       : 848 pixels
Height                      : 352 pixels
Display aspect ratio        : 2.40:1
Frame rate mode             : Constant
Frame rate                  : 23.976 (24000/1001) FPS
Color space                 : YUV
Chroma subsampling          : 4:2:0
Bit depth                   : 8 bits
Scan type                   : Progressive
Bits/(Pixel*Frame)          : 0.063
Stream size                 : 345 MiB (87%)

Audio
ID                          : 2
Format                      : AC-3
Format/Info                 : Audio Coding 3
Codec ID                    : A_AC3
Duration                    : 1 h 47 min
Bit rate mode               : Constant
Bit rate                    : 64.0 kb/s
Channel(s)                  : 2 channels
Channel positions           : Front: L R
Sampling rate               : 48.0 kHz
Bit depth                   : 16 bits
Compression mode            : Lossy
Stream size                 : 49.1 MiB (12%)
Language                    : English


:ss:







:download:



Thanks.
TeaM FL , TeaM SSX, AnantaRdp



Share this topic on FacebookShare this topic on GoogleShare this topic on MySpaceShare this topic on TwitterShare this topic on Yahoo

« Last Edit: June 21, 2018, 10:44:43 PM by Ðj sαм »


Thanks given by:


 

Related Topics

  Subject / Started by Replies Last post
0 Replies
681 Views
Last post May 01, 2018, 03:42:24 PM
by omd123
1 Replies
1014 Views
Last post June 14, 2018, 06:35:20 PM
by shahzaibjaan
0 Replies
439 Views
Last post June 18, 2018, 10:15:47 AM
by ♥ Mann ♥
0 Replies
444 Views
Last post July 18, 2018, 10:04:39 PM
by Ðj sαм
0 Replies
739 Views
Last post July 18, 2018, 10:06:20 PM
by Ðj sαм




Back to top